Anh/Mỹ Harry Potter Collection Pack 2001-2009 mHD 720p AC3 x264-EPiK (Sub Việt, Eng)

Mr LNA

Administrator
1 Tháng mười một 2010
49,064
12
38
Harry Potter Collection Pack 2001-2009 mHD 720p AC3 x264-EPiK (Sub Việt, Eng)


================================================== =

INFO

MOVIE.iNFO:

Harry Potter and the Sorcerer's Stone (2001)

GENRE..: Adventure / Family / Fantasy
TAGLiNE: Let The Magic Begin.
PLOT...: Rescued from the outrageous neglect of his aunt and uncle, a
young boy with a great destiny proves his worth while
attending Hogwarts School of Witchcraft and Wizardry
RATiNG.: 7.2/10 (85,495 votes)
IMDB...: Harry Potter and the Philosopher's Stone (2001) - IMDb


RELEASE.iNFO:
Code:
General
Complete name : 1.Harry.Potter.and.the.Sorcerers.Stone.2001.mHD.720p.AC3.x264-EPiK.mkv
Format : Matroska
File size : 2.42 GiB
Duration : 2h 32mn
Overall bit rate : 2 270 Kbps

Video
ID : 2
Duration : 2h 32mn
Bit rate : 1 777 Kbps
Width : 1 280 pixels
Height : 532 pixels
Display aspect ratio : 2.40:1
Frame rate : 23.976 fps
Language : English

Audio
ID : 1
Format : AC-3
Duration : 2h 32mn
Bit rate : 448 Kbps
Channel(s) : 6 channels
Sampling rate : 48.0 KHz
Bit depth : 16 bits
Stream size : 488 MiB (20%)
Language : English

Text #1
ID : 3
Language : English

Text #2
ID : 4
Language : Vietnamese
MOVIE.iNFO

Harry Potter and the Chamber of Secrets (2002)

GENRE..: Adventure / Family / Fantasy / Mystery

TAGLiNE

PLOT...: Harry ignores warnings not to return to Hogwarts, only to
find the school plagued by a series of mysterious attacks and
a strange voice haunting him

RATiNG.: 7.2/10 (78,870 votes)

IMDB...: Harry Potter and the Chamber of Secrets (2002) - IMDb

RELEASE.iNFO
Code:
General
Complete name : 2.Harry.Potter.and.the.Chamber.of.Secrets.2002.mHD.720p.AC3.x264-EPiK.mkv
Format : Matroska
File size : 2.31 GiB
Duration : 2h 40mn
Overall bit rate : 2 053 Kbps

Video
ID : 1
Duration : 2h 40mn
Bit rate : 1 564 Kbps
Width : 1 280 pixels
Height : 536 pixels
Display aspect ratio : 2.35:1
Frame rate : 23.976 fps
Color space : YUV
Chroma subsampling : 4:2:0
Language : English

Audio
ID : 2
Bit rate : 448 Kbps
Channel(s) : 6 channels
Channel positions : Front: L C R, Side: L R, LFE
Sampling rate : 48.0 KHz
Bit depth : 16 bits
Stream size : 516 MiB (22%)
Language : English

Text #1
ID : 3
Language : Vietnamese

Text #2
ID : 4
Language : English

MOVIE.iNFO

Harry Potter and the Prisoner of Azkaban (2004)

GENRE..: Adventure / Family / Fantasy

TAGLiNE: Something wicked this way comes

PLOT...: It's Harry's third year at Hogwarts; not only does he have a
new "Defense Against the Dark Arts" teacher, but there is
also trouble brewing. Convicted murderer Sirius Black has
escaped the Wizards' Prison and is coming after Harry

RATiNG.: 7.7/10 (63,614 votes)

IMDB...: Harry Potter and the Prisoner of Azkaban (2004) - IMDb

RELEASE.iNFO
Code:
General
Complete name : 3.Harry.Potter.and.the.Prisoner.of.Azkaban.2004.mHD.720p.AC3.x264-EPiK.mkv
Format : Matroska
File size : 2.28 GiB
Duration : 2h 21mn

Video
ID : 1
Duration : 2h 21mn
Bit rate : 1 807 Kbps
Width : 1 280 pixels
Height : 532 pixels
Display aspect ratio : 2.40:1
Frame rate : 23.976 fps

Audio
ID : 2
Bit rate : 448 Kbps
Channel(s) : 6 channels
Channel positions : Front: L C R, Side: L R, LFE
Sampling rate : 48.0 KHz
Bit depth : 16 bits
Stream size : 454 MiB (19%)
Language : English

Text #1
ID : 3
Format : ASS

Text #2
ID : 4
Format : UTF-8
Language : Vietnamese

MOVIE.iNFO

Harry Potter and the Goblet of Fire (2005)

GENRE..: Adventure / Family / Fantasy / Mystery

TAGLiNE

PLOT...: Harry finds himself selected as an underaged competitor in a
dangerous multi-wizardary school competition

RATiNG.: 7.7/10 (68,596 votes)

IMDB...: Harry Potter and the Goblet of Fire (2005) - IMDb

RELEASE.iNFO
Code:
General
Complete name : C4.Harry.Potter.and.the.Goblet.of.Fire.2005.mHD.720p.AC3.x264-EPiK.mkv

File size : 2.31 GiB
Duration : 2h 37mn
Overall bit rate : 2 104 Kbps

Video
ID : 3
Duration : 2h 37mn
Bit rate : 1 614 Kbps
Width : 1 280 pixels
Height : 534 pixels
Display aspect ratio : 2.35:1
Frame rate : 23.976 fps
Language : English

Audio
ID : 4
Bit rate : 448 Kbps
Channel(s) : 6 channels
Channel positions : Front: L C R, Side: L R, LFE
Sampling rate : 48.0 KHz
Bit depth : 16 bits
Stream size : 503 MiB (21%)
Language : English

Text #1
ID : 1
Format : ASS
Language : English

Text #2
ID : 2
Format : UTF-8
Language : Vietnamese

MOVIE.iNFO

Harry Potter and the Order of the Phoenix (2007)

GENRE..: Adventure / Drama / Family / Fantasy

TAGLiNE: The Rebellion Begins

PLOT...: With their warning about Lord Voldemort's return scoffed at
Harry and Dumbledore are targeted by the Wizard authorities
as an authoritarian bureaucrat slowly seizes power at
Hogwarts

RATiNG.: 7.6/10 (53,478 votes)

IMDB...: Harry Potter and the Order of the Phoenix (2007) - IMDb

RELEASE.iNFO
Code:
General
Complete name : 5.Harry.Potter.and.the.Order.of.the.Phoenix.2007.mHD.720p.AC3.x264-EPiK.mkv

File size : 1.96 GiB
Duration : 2h 18mn
Overall bit rate : 2 033 Kbps


Video
ID : 1
Duration : 2h 18mn
Bit rate : 1 545 Kbps
Width : 1 280 pixels
Height : 532 pixels
Display aspect ratio : 2.40:1
Frame rate : 23.976 fps
Language : English

Audio
ID : 2
Bit rate : 448 Kbps
Channel(s) : 6 channels
Channel positions : Front: L C R, Side: L R, LFE
Sampling rate : 48.0 KHz
Bit depth : 16 bits
Stream size : 443 MiB (22%)
Language : English

Text #1
ID : 3
Format : UTF-8
Codec ID : S_TEXT/UTF8
Codec ID/Info : UTF-8 Plain Text
Language : Vietnamese

================================================== =



Harry Potter and the Half Blood Prince 2009
Plot

As Harry Potter begins his 6th year at Hogwarts School of Witchcraft and Wizardry, he discovers an old book marked mysteriously "This book is the property of the Half-Blood Prince" and begins to learn more about Lord Voldemort's dark past.

Release Info

Code:
General
Complete name : 6.Harry.Potter.and.the.Half-Blood.Prince.2009.mHD.720p.AC3.x264-EPiK.mkv
Format : Matroska
File size : 1.95 GiB
Duration : 24h 0mn
Overall bit rate : 194 Kbps

Video
Duration : 23h 59mn
Width : 1 280 pixels
Height : 534 pixels
Display aspect ratio : 2.35:1
Frame rate : 23.976 fps
Language : English

Audio
ID : 1
Bit rate : 640 Kbps
Channel(s) : 6 channels
Channel positions : Front: L C R, Side: L R, LFE
Sampling rate : 48.0 KHz
Bit depth : 16 bits
Stream size : 6.44 GiB
Language : English

Text #1
ID : 2
Language : English

Text #2
ID : 3
Codec ID/Info : UTF-8 Plain Text
Screens




Torrent:
Code:
http://all.hdvnbits.org/harry_potte...hd_720p_ac3_x264_epik_sub_viet_eng_t3730.html
Mega1280:
Code:
http://mega.1280.com/folder/OI1M39XKJC
 

New Jobs

Thống kê diễn đàn

Chủ đề
61,130
Bài viết
63,350
Thành viên
86,080
Thành viên mới nhất
yensaovietfarm

VỀ CHÚNG TÔI

  • Sinhvienthamdinh.Com là diễn đàn đầu tiên và lớn nhất dành riêng cho cộng đồng nhân lực ngành thẩm định giá. Cổng thông tin được tạo ra nhằm tạo kênh kết nối tri thức cho tất cả các bạn đã và đang quan tâm đến ngành thẩm định giá. Các thông tin được tổng hợp với đầy đủ các mảng thuộc lĩnh vực thẩm định giá như: Thẩm định giá Bất động sản, thẩm định giá động sản, thẩm định giá máy móc thiết bị, thẩm định giá doanh nghiệp, thẩm định giá dự án đầu tư, thẩm định giá thương hiệu...
  • Với phương châm "Connet For Sharing" chúng tôi chia sẻ hoàn toàn miễn phí và không giới hạn những kiến thức từ cộng đồng diễn đàn.

DANH MỤC CHÍNH

CÁ NHÂN