[4SVN-FSVN] Mysterious Island 2 2013 HDTV 720P x264 AC3-CHD - Cô đảo kinh hồn 2 (Đặng Gia Giai)

Mr LNA

Administrator
1 Tháng mười một 2010
12,925
0
36
Mysterious Island 2 2013 HDTV 720P x264 AC3-CHD


Cô đảo kinh hồn 2
(Đặng Gia Giai, Trần Chí Bằng)







Trích dẫn:
[HR][/HR] Tên phim: Cô đảo kinh hồn 2
Tên tiếng Trung: 孤岛惊魂2
Tên tiếng Anh: Mysterious Island 2
Thể loại: kinh dị
Đạo diễn: Chung Kế Xương
Biên kịch: --
Diễn viên: Đặng Gia Giai, Trần Chí Bằng
Thời lượng: 93 phút
Thời gian công chiếu: 26/01/2013 trên toàn quốc
[HR][/HR]


[URL="http://nu9.upanh.com/b6.s33.d3/ad19eb5ad4768d095edb8173771a2e51_53369539.mysteriousisland22013hdtv720px26.jpg"][/URL]
[URL="http://nu1.upanh.com/b2.s35.d2/7e1dbf13952e21fa6f9f449a77c861d9_53369541.mysteriousisland22013hdtv720px26.jpg"][/URL]
[URL="http://nu2.upanh.com/b6.s33.d2/16b137c667342d2f0176f9530e98e6e5_53369542.mysteriousisland22013hdtv720px26.jpg"][/URL]
[URL="http://nu5.upanh.com/b6.s32.d2/fe9868e005d1f433f47312d9c5b719b5_53369545.mysteriousisland22013hdtv720px26.jpg"][/URL]
[URL="http://nu6.upanh.com/b6.s33.d2/465e50b5c215b61229da9c29590577d0_53369546.mysteriousisland22013hdtv720px26.jpg"][/URL]
[URL="http://nu7.upanh.com/b3.s34.d1/31a5caa5acd24fb934bdb1ff778d0199_53369547.mysteriousisland22013hdtv720px26.jpg"][/URL]



Mã:
[HR][/HR]General
Unique ID : 209571497508536669259544857185696700841 (0x9DAA0093BACEACDFBDB4081C191159A9)
Complete name : D:\Mysterious.Island.2.2013.HDTV.720P.x264.AC3.mkv
Format : Matroska
File size : 3.50 GiB
Duration : 1h 32mn
Overall bit rate : 5 388 Kbps
Encoded date : UTC 2013-02-18 02:19:48
Writing application : mkvmerge v5.4.0 ('Piper') built on Mar 10 2012 13:34:39
Writing library : libebml v1.2.3 + libmatroska v1.3.0


Video
ID : 1
Format : AVC
Format/Info : Advanced Video Codec
Format profile : High@L4.1
Format settings, CABAC : Yes
Format settings, ReFrames : 9 frames
Format settings, GOP : M=7, N=8
Muxing mode : Header stripping
Codec ID : V_MPEG4/ISO/AVC
Duration : 1h 32mn
Bit rate : 5 196 Kbps
Width : 1 280 pixels
Height : 544 pixels
Display aspect ratio : 2.35:1
Frame rate : 24.000 fps
Color space : YUV
Chroma subsampling : 4:2:0
Bit depth : 8 bits
Scan type : Progressive
Bits/(Pixel*Frame) : 0.311
Stream size : 3.30 GiB (94%)
Writing library : x264 core 129 r2230 1cffe9f
Encoding settings : cabac=1 / ref=9 / deblock=1:-3:-3 / analyse=0x3:0x133 / me=umh / subme=9 / psy=1 / psy_rd=1.10:0.00 / mixed_ref=1 / me_range=32 / chroma_me=1 / trellis=2 / 8x8dct=1 / cqm=0 / deadzone=21,11 / fast_pskip=0 / chroma_qp_offset=-2 / threads=12 / lookahead_threads=2 / sliced_threads=0 / nr=0 / decimate=0 / interlaced=0 / bluray_compat=0 / constrained_intra=0 / bframes=6 / b_pyramid=2 / b_adapt=2 / b_bias=0 / direct=3 / weightb=1 / open_gop=0 / weightp=2 / keyint=240 / keyint_min=24 / scenecut=40 / intra_refresh=0 / rc_lookahead=120 / rc=2pass / mbtree=1 / bitrate=5196 / ratetol=1.0 / qcomp=0.70 / qpmin=0 / qpmax=69 / qpstep=4 / cplxblur=20.0 / qblur=0.5 / vbv_maxrate=38000 / vbv_bufsize=32000 / nal_hrd=none / ip_ratio=1.10 / aq=1:0.90


Audio
ID : 2
Format : AC-3
Format/Info : Audio Coding 3
Mode extension : CM (complete main)
Muxing mode : Header stripping
Codec ID : A_AC3
Duration : 1h 32mn
Bit rate mode : Constant
Bit rate : 192 Kbps
Channel(s) : 2 channels
Channel positions : Front: L R
Sampling rate : 48.0 KHz
Bit depth : 16 bits
Compression mode : Lossy
Stream size : 128 MiB (4%)
[HR][/HR]


[URL="http://thumbnails103.imagebam.com/23796/172e40237958427.jpg"][/URL] [URL="http://thumbnails108.imagebam.com/23796/727cfd237958435.jpg"][/URL] [URL="http://thumbnails102.imagebam.com/23796/95f390237958456.jpg"][/URL] [URL="http://thumbnails108.imagebam.com/23796/f6ac8a237958471.jpg"][/URL] [URL="http://thumbnails102.imagebam.com/23796/0b5ba3237958483.jpg"][/URL] [URL="http://thumbnails108.imagebam.com/23796/682905237958497.jpg"][/URL] [URL="http://thumbnails107.imagebam.com/23796/ac3dd0237958508.jpg"][/URL] [URL="http://thumbnails102.imagebam.com/23796/49d1b7237958522.jpg"][/URL] [URL="http://thumbnails107.imagebam.com/23796/9d557f237958533.jpg"][/URL] [URL="http://thumbnails106.imagebam.com/23796/4212a4237958540.jpg"][/URL] [URL="http://thumbnails103.imagebam.com/23796/57444c237958548.jpg"][/URL] [URL="http://thumbnails107.imagebam.com/23796/27c2e1237958559.jpg"][/URL]









:mg:
Trích dẫn:
[HR][/HR] Fshare - Dich vu chia se, luu tru du lieu mien phi tot nhat [HR][/HR]

:4s:
Trích dẫn:
[HR][/HR] 4Share.vn - Tốt nhất, Nhanh nhất - The Best FileHosting Service [HR][/HR]

 

Thống kê diễn đàn

Chủ đề
25,003
Bài viết
27,483
Thành viên
84,983
Thành viên mới nhất
jack

VỀ CHÚNG TÔI

  • Sinhvienthamdinh.Com là diễn đàn đầu tiên và lớn nhất dành riêng cho cộng đồng nhân lực ngành thẩm định giá. Cổng thông tin được tạo ra nhằm tạo kênh kết nối tri thức cho tất cả các bạn đã và đang quan tâm đến ngành thẩm định giá. Các thông tin được tổng hợp với đầy đủ các mảng thuộc lĩnh vực thẩm định giá như: Thẩm định giá Bất động sản, thẩm định giá động sản, thẩm định giá máy móc thiết bị, thẩm định giá doanh nghiệp, thẩm định giá dự án đầu tư, thẩm định giá thương hiệu...
  • Với phương châm "Connet For Sharing" chúng tôi chia sẻ hoàn toàn miễn phí và không giới hạn những kiến thức từ cộng đồng diễn đàn.

DANH MỤC CHÍNH

CÁ NHÂN